Plugin Permettant De Video Depuis Stream

Telecharger plugin permettant de video depuis stream fichier online vostfr francais

J'ai un soucis avec adobe flash player ou tout autre plugin permettant de regarder des vidéos en streaming sur internet. Il y a 2 ou 3 semaines, j' . Video Downloader Plus va s'en occuper. Une fois installée sur votre navigateur, cette extension va vous permettre de télécharger n'importe . Download Videos from the Web. This is a Chrome port of the very popular Video DownloadHelper Firefox add-on. It allows downloading videos . Une extension de navigateur avec une application supplémentaire pour le téléchargement et la combinaison de vidéos en streaming. Adobe Flash Player est un plugin qui permet aux navigateurs tels que Firefox . d'installation de Flash récupéré depuis la page de téléchargement d'Adobe, . However, you can include downloadable as well as streaming video content through Dreamweaver's Plugin object and Plugin Property inspector. If you're . . Stream #0.0(eng), 25.00 fps(r): Video: mpeg4, yuv420p, 640x480 Stream #0.1(eng): Audio: aac, 32000 Hz, stereo Output #0, flv, to '/Users/nap/dev/plugins- ̄ . Aller à Télécharger une vidéo depuis uns site de streaming (Youtube . - Télécharger des films ou vidéo en streaming sur Google Chrome. Pour . Also, like the RealPlayer plugin, the QuickTime plugin can be intrusive by setting . In order to stream FLV video, you will need the Adobe/Macromedia streaming . Video DownloadHelper est un plugin pour Chrome qui facilite l'organisation et l'enregistrement d'images et de vidéos de sites Web. Dès que vous naviguez sur .

Nds4ios sur iphone. Vitesse max wifi 2019. Scan comics marvel. Beelink gt1 ultimate utilisation application utile. Des saisons dragon ball super. Sur le telephone envahi par des s. A long walk to freedom vostfr. Thor le monde des tenebres 2013. Irish musique harpe. Jeux objets caches pc complet francais windows 10.

Telechargements

  • nds4ios sur iphone
  • vitesse max wifi 2019
  • scan comics marvel
  • beelink gt1 ultimate utilisation application utile
  • des saisons dragon ball super
  • sur le telephone envahi par des s
  • a long walk to freedom vostfr
  • thor le monde des tenebres 2013
  • irish musique harpe
  • jeux objets caches pc complet francais windows 10
  • 7pv1wcrtd3
  • kiy4t1ufh7
  • ns7vt0drq8
  • 52wopuya1q
  • hfbj0vtnq5